Wednesday, 24.05.2017, 19:31
Welcome Guest | RSS
Main
Registration
Login




Vinyl [7]
Alternative [103]
Jazz [26]
Classic rock [179]
Classical [9]
Hard & Heavy [60]
Mainstream [53]
Hip-Hop [3]
Meditative [11]
New Beats [8]
Progressive [38]
Roots [25]
OST, Campilation [28]
DTS Releases [4]
Dvd Rip [7]
DVD [7]
Lossless HTTP [54]

Rate my site
Total of answers: 17


Total online: 1
Guests: 1
Users: 0

Login form

Main » 2011 » July » 14 » Aldina Duarte - Apenas O Amor (2004)
22:21
Aldina Duarte - Apenas O Amor (2004)
 

Audio CD (March 29, 2004) 
Number of Discs: 1 
Format: Import 
Label: EMI Portugal 
ASIN: B0018Q0HTO 

TRACKLIST: 
01. A voz do silêncio 
Aldina Duarte / Alberto Correia 
02. M F 
Aldina Duarte / Popular ( Fado Menor ) 
03. Anjo inútil 
04. Ai meu amor se bastasse 
Manuela de Freitas / Pedro Rodrigues dos Santos ( Fado Marcha de Pedro Rodrigues ) 
05. Lírio quebrado 
Aldina Duarte / Alfredo Rodrigo Duarte ( Marceneiro ) 
06. Antes de que 
Manuela de Freitas / Raul Ferrão 
07. Casa mãe - cidade 
Aldina Duarte / Jaime Tiago dos Santos 
08. Quase lembrança 
Aldina Duarte / José António Guimarães Serôdio ( Sabrosa ) 
09. Muro vazio 
Aldina Duarte / Carlos da Maia 
10. Nada mais na noite 
Aldina Duarte / Alfredo Rodrigo Duarte ( Marceneiro ) 
11. Sonho lento 
Aldina Duarte / Henrique Lourenço 
12. Canção a meia voz 
João Cabral Nascimento / Joaquim Campos da Silva 

AMAZON 

INFO: 
Code
Exact Audio Copy V1.0 beta 1 from 15. November 2010 

EAC extraction logfile from 27. June 2011, 7:57 

Apenas Amor / Aldina Duarte 

Used drive  : HL-DT-STDVDRAM GSA-T40N   Adapter: 1  ID: 0 

Read mode               : Secure 
Utilize accurate stream : Yes 
Defeat audio cache      : Yes 
Make use of C2 pointers : No 

Combined read/write offset correction       : 0 
Overread into Lead-In and Lead-Out          : No 
Fill up missing offset samples with silence : Yes 
Delete leading and trailing silent blocks   : No 
Null samples used in CRC calculations       : No 
Used interface                    : Native Win32 interface for Win NT & 2000 

Used output format              : User Defined Encoder 
Selected bitrate                : 1024 kBit/s 
Quality                         : High 
Add ID3 tag                     : No 
Command line compressor         : C:\Program Files\Monkey's Audio\Monkey's Audio.exe 

TOC of the extracted CD 

      Track |   Start  |  Length  | Start sector | End sector  
     --------------------------------------------------------- 
         1  |  0:00.00 |  3:27.44 |         0    |    15568    
         2  |  3:27.44 |  3:20.47 |     15569    |    30615    
         3  |  6:48.16 |  2:50.06 |     30616    |    43371    
         4  |  9:38.22 |  2:33.24 |     43372    |    54870    
         5  | 12:11.46 |  3:20.21 |     54871    |    69891    
         6  | 15:31.67 |  3:20.24 |     69892    |    84915    
         7  | 18:52.16 |  2:34.28 |     84916    |    96493    
         8  | 21:26.44 |  3:05.59 |     96494    |   110427    
         9  | 24:32.28 |  3:25.63 |    110428    |   125865    
        10  | 27:58.16 |  2:37.32 |    125866    |   137672    
        11  | 30:35.48 |  4:22.69 |    137673    |   157391    
        12  | 34:58.42 |  4:22.34 |    157392    |   177075    

Range status and errors 

Selected range 

      Filename C:\Users\Utilizador\Desktop\Aldina\Apenas Amor - Aldina Duarte.wav 

      Peak level 96.8 % 
      Extraction speed 0.3 X 
      Range quality 100.0 % 
      Copy CRC 45841F12 
      Copy OK 

No errors occurred 

End of status report


release by miggy 

download
Category: Roots | Views: 312 | Added by: Rat | Rating: 0.0/0
Total comments: 0
Only registered users can add comments.
[ Registration | Login ]

«  July 2011  »
SuMoTuWeThFrSa
     12
3456789
10111213141516
17181920212223
24252627282930
31


  • Israel-club.my1.ru


  • Copyright MyCorp © 2017