Tuesday, 24.10.2017, 13:21
Welcome Guest | RSS
Main
Registration
Login




Vinyl [7]
Alternative [103]
Jazz [26]
Classic rock [179]
Classical [9]
Hard & Heavy [60]
Mainstream [53]
Hip-Hop [3]
Meditative [11]
New Beats [8]
Progressive [38]
Roots [25]
OST, Campilation [28]
DTS Releases [4]
Dvd Rip [7]
DVD [7]
Lossless HTTP [54]

Rate my site
Total of answers: 17


Total online: 1
Guests: 1
Users: 0

Login form

Main » 2010 » February » 5 » Adam Ant - Vive Le Rock (Remastered) (1985/2005)
23:12
Adam Ant - Vive Le Rock (Remastered) (1985/2005)

# Audio CD: Adam Ant - Vive Le Rock
# Original Release Date: May 3, 2005
# Genre: punk/new wave
# Label: epic Records
# Format: eac-ape

Quote

Vive Le Rock is Adam's most overly rocking album. Great loud guitars, Americanisms and Americana. Space Cowboys playing T.REX songs.

The album has it's share of great songs. The great ELO-esque title track. The loud rocking "Miss Thing". The barroom-piano of "Mohair Lockeroom Pin-Up Boys". The T.Rex sounding "Rip Down". The catchy and ultra-busy "Apollo 9" single. The weirdly catchy "No Zap", Scorpio Rising", "Hell's Eight Acres". Adam's songs are great and Marco is well-accounted for (he was a bit too reserved on the Strip album).

The album is an easily enjoyable romp for any Ant fan. Others will certainly like all the catchy and weirdly arranged songs.

The bonus tracks are great. Well-produced demos and intersting 12" mix (for a change) versions of "Vive Le Rock" and "Apollo 9".
There are also many great outtakes for this album ("Greta X", "Human Bondage Den", "Hired Gun" and "Saigon") which can be found on Antbox and B-Side Babies (also recommened). They are not on here but should also be sought after as Vive Le Rock could have been an incredible double-album as well.

Great Remaster with lyrics and perfect sound. A Must have!!

01. Vive Le Rock [0:03:40.06]
02. Miss Thing [0:03:08.33]
03. Razor Keen [0:03:52.63]
04. Rip Down [0:03:23.58]
05. Scorpio Rising [0:04:06.64]
06. Apollo 9 [0:03:22.65]
07. Hell's Eight Acres [0:03:52.09]
08. Mohair Lockeroom Pin-Up Boys [0:03:14.70]
09. No Zap [0:03:15.00]
10. P.O.E [0:03:25.26]
11. Apollo 9 (A Cappella Reprise) [0:01:30.24]
12. Human Bondage Den (album outtake) [0:03:06.64]
13. Vive Le Rock (Rico Conning 12" mix) [0:07:29.17]
14. Apollo 9 (Francois Kervorkian 7" mix) [0:03:41.21]
15. Doggy Style (demo) [0:03:47.41]
16. Night They Vietcong (demo) [0:03:06.10]
17. Big Big Man (Razor Keen) (demo) [0:03:27.42]
18. Rip Down (demo) [0:03:17.29]
19. Apollo 9 (Francois Kervorkian Splashdown 12" mix) [0:06:46.40]
20. Vive Le Rock (Steve Thompson 12" mix) [0:03:49.25]

Code
Exact Audio Copy V0.99 prebeta 4 from 23. January 2008

EAC extraction logfile from 19. May 2009, 14:07

Adam Ant / Vive Le Rock (Remastered)

Used drive  : Optiarc DVD RW AD-7170A   Adapter: 3  ID: 0

Read mode               : Secure
Utilize accurate stream : Yes
Defeat audio cache      : Yes
Make use of C2 pointers : No

Read offset correction                      : 48
Overread into Lead-In and Lead-Out          : No
Fill up missing offset samples with silence : Yes
Delete leading and trailing silent blocks   : No
Null samples used in CRC calculations       : Yes
Used interface                    : Installed external ASPI interface

Used output format : Internal WAV Routines
Sample format      : 44.100 Hz; 16 Bit; Stereo

TOC of the extracted CD

       Track |   Start  |  Length  | Start sector | End sector   
      ---------------------------------------------------------
          1  |  0:00.00 |  3:40.06 |         0    |    16505     
          2  |  3:40.06 |  3:08.33 |     16506    |    30638     
          3  |  6:48.39 |  3:52.63 |     30639    |    48101     
          4  | 10:41.27 |  3:23.58 |     48102    |    63384     
          5  | 14:05.10 |  4:06.64 |     63385    |    81898     
          6  | 18:11.74 |  3:22.65 |     81899    |    97113     
          7  | 21:34.64 |  3:52.09 |     97114    |   114522     
          8  | 25:26.73 |  3:14.70 |    114523    |   129142     
          9  | 28:41.68 |  3:15.00 |    129143    |   143767     
         10  | 31:56.68 |  3:25.26 |    143768    |   159168     
         11  | 35:22.19 |  1:30.24 |    159169    |   165942     
         12  | 36:52.43 |  3:06.64 |    165943    |   179956     
         13  | 39:59.32 |  7:29.17 |    179957    |   213648     
         14  | 47:28.49 |  3:41.21 |    213649    |   230244     
         15  | 51:09.70 |  3:47.41 |    230245    |   247310     
         16  | 54:57.36 |  3:06.10 |    247311    |   261270     
         17  | 58:03.46 |  3:27.42 |    261271    |   276837     
         18  | 61:31.13 |  3:17.29 |    276838    |   291641     
         19  | 64:48.42 |  6:46.40 |    291642    |   322131     
         20  | 71:35.07 |  3:49.25 |    322132    |   339331     

Range status and errors

Selected range

       Filename C:\Documents and Settings\Мои документы\Adam Ant - Vive Le Rock.Rem.by.rat.eac.ape.covers.Israel-club.my1.ru\Adam Ant - Vive Le Rock.Rem.by.rat.eac.ape.covers.Israel-club.my1.ru.wav

       Peak level 100.0 %
       Range quality 100.0 %
       Copy CRC C9D6461E
       Copy OK

No errors occurred

End of status report

My WebPage

Category: Alternative | Views: 380 | Added by: Rat | Rating: 0.0/0
Total comments: 0
Only registered users can add comments.
[ Registration | Login ]

«  February 2010  »
SuMoTuWeThFrSa
 123456
78910111213
14151617181920
21222324252627
28


  • Israel-club.my1.ru


  • Copyright MyCorp © 2017