Friday, 23.06.2017, 19:20
Welcome Guest | RSS
Main
Registration
Login




Vinyl [7]
Alternative [103]
Jazz [26]
Classic rock [179]
Classical [9]
Hard & Heavy [60]
Mainstream [53]
Hip-Hop [3]
Meditative [11]
New Beats [8]
Progressive [38]
Roots [25]
OST, Campilation [28]
DTS Releases [4]
Dvd Rip [7]
DVD [7]
Lossless HTTP [54]

Rate my site
Total of answers: 17


Total online: 1
Guests: 1
Users: 0

Login form

Main » 2010 » February » 12 » Ace Frehley - Anomaly (2009)
22:50
Ace Frehley - Anomaly (2009)

# Audio CD (September 15, 2009)
# Original Release Date: September 15, 2009
# Format: eac-flac
# Label: Bronx Born Records
# Genre: Hard/heavy

Quote

I have to say that I never expected such a great album from Ace, especially not at this point in his career... but this album is FANTASTIC! Ace has gone into musical areas that he's never covered before & Genghis Khan alone is more than worth getting this CD for. I think it's the best tune he's ever written but I also love Fox on the Run, Change the World, It's a Great Life & Fractured Quantum.

I doubt Ace is ever going to bring in too may new fans at this late point in his career so if you're a fan I would HIGHLY recomend not listening to the bad reviews that I find to be ill-informed & completely out of touch with what Ace has produced here. The songwriting is surprisingly good & VERY different for the Spaceman & while there are some "Frehley's Comet" style tunes here (Foxy & Free, Pain in the Neck & Sister) that style is a big part of Ace's repetoire & you either like it or you don't. But the new direction he's taken on Genghis Khan, A Little Below the Angels, Change the World & It's a Great Life are HUGE musical shifts for Ace & sound like NOTHING he's ever done before.

I've been a KISS fan since 1974 & while I'm not too thrilled with what they're doing now I certainly know the music backwards & forwards & for anyone to say that this album is "more of the same" immediately lets me know that they have no idea what they're talking about.

Ace Fans: If you're still not sure you can listen to the entire album for free at VH1... I have NO DOUBT that you'll be running to the store to buy it or iTunes to download it after having a listen. I haven't been this thrilled with a Kiss-related release in about 20 years & I take my hat off to Ace for pushing the envelope on this GREAT ALBUM

01. Foxy & Free [0:03:42.74]
02. Outer Space [0:03:48.17]
03. Pain In The Neck [0:04:10.15]
04. Fox on the Run [0:03:33.58]
05. Genghis Khan [0:06:08.33]
06. Too Many Faces [0:04:22.37]
07. Change the World [0:04:10.38]
08. Space Bear [0:05:24.15]
09. A Little Below The Angels [0:04:17.19]
10. Sister [0:04:48.06]
11. It's a Great Life [0:03:59.38]
12. Fractured Quantum [0:06:19.24]

Code
Exact Audio Copy V0.99 prebeta 4 from 23. January 2008

EAC extraction logfile from 5. October 2009, 11:17

Ace Frehley  / Anomaly   

Used drive  : Optiarc DVD RW AD-7170A   Adapter: 3  ID: 0

Read mode               : Secure
Utilize accurate stream : Yes
Defeat audio cache      : Yes
Make use of C2 pointers : No

Read offset correction                      : 48
Overread into Lead-In and Lead-Out          : No
Fill up missing offset samples with silence : Yes
Delete leading and trailing silent blocks   : No
Null samples used in CRC calculations       : Yes
Used interface                    : Native Win32 interface for Win NT & 2000

Used output format : Internal WAV Routines
Sample format      : 44.100 Hz; 16 Bit; Stereo

TOC of the extracted CD

       Track |   Start  |  Length  | Start sector | End sector   
      ---------------------------------------------------------
          1  |  0:00.00 |  3:42.74 |         0    |    16723     
          2  |  3:42.74 |  3:48.17 |     16724    |    33840     
          3  |  7:31.16 |  4:10.15 |     33841    |    52605     
          4  | 11:41.31 |  3:33.58 |     52606    |    68638     
          5  | 15:15.14 |  6:08.33 |     68639    |    96271     
          6  | 21:23.47 |  4:22.37 |     96272    |   115958     
          7  | 25:46.09 |  4:10.38 |    115959    |   134746     
          8  | 29:56.47 |  5:24.15 |    134747    |   159061     
          9  | 35:20.62 |  4:17.19 |    159062    |   178355     
         10  | 39:38.06 |  4:48.06 |    178356    |   199961     
         11  | 44:26.12 |  3:59.38 |    199962    |   217924     
         12  | 48:25.50 |  6:19.24 |    217925    |   246373     

Range status and errors

Selected range

       Filename C:\Documents and Settings\Мои документы\Ace Frehley  - Anomaly.by.rat.eac-flac.covers.Israel-club.my1.ru\Ace Frehley  - Anomaly.by.rat.eac-flac.covers.Israel-club.my1.ru.wav

       Peak level 99.9 %
       Range quality 100.0 %
       Copy CRC C45E18CA
       Copy OK

No errors occurred

End of status report

Download

Category: Hard & Heavy | Views: 378 | Added by: Rat | Rating: 0.0/0
Total comments: 0
Only registered users can add comments.
[ Registration | Login ]

«  February 2010  »
SuMoTuWeThFrSa
 123456
78910111213
14151617181920
21222324252627
28


  • Israel-club.my1.ru


  • Copyright MyCorp © 2017