Saturday, 21.10.2017, 18:03
Welcome Guest | RSS
Main
Registration
Login




Vinyl [7]
Alternative [103]
Jazz [26]
Classic rock [179]
Classical [9]
Hard & Heavy [60]
Mainstream [53]
Hip-Hop [3]
Meditative [11]
New Beats [8]
Progressive [38]
Roots [25]
OST, Campilation [28]
DTS Releases [4]
Dvd Rip [7]
DVD [7]
Lossless HTTP [54]

Rate my site
Total of answers: 17


Total online: 1
Guests: 1
Users: 0

Login form

Main » 2010 » October » 27 » Accept - Objection Overruled (1993) [Japanese Edition]
17:38
Accept - Objection Overruled (1993) [Japanese Edition]

Accept - Objection Overruled (1993) [Japanese Edition] 
Heavy Metal | EAC Rip | FLAC(Images)+CUE+LOG 
| HQ Covers (300dpi) | Total 365 MB 
Release: 1993 | Label: Victors | Catalog No.: VICP-5210 
| Recovery: 3%

Quote
Objection Overruled is the 1993 reunion album by German heavy metal band Accept, the first to feature Udo Dirkschneider on lead vocals since 1986's Russian Roulette. It was recorded at Dierks-Studios in Stommeln after pre-production at Roxx Studios.

In contrast to some of the other Accept albums, Wolf Hoffmann recalls Objection Overruled as an easy one to record: "That was great! I mean, making up and having reunions are always great in a way because you feel that sort of spirit or fresh wind again. It was great! We had a ball back then," adding, "we just really pretty much made records like we always did and felt like we should use the old formulas with no more sort of experiments and just pretty much do what Accept is known for; and that's what we did."

Udo concurs, calling Objection Overruled "that classic Accept sound again" as well as "a very good Accept album". It was only after the album's release that rifts would begin to re-emerge within the band.

The uncredited cover photo was taken by Wolf Hoffmann.

All compositions credited to Accept and Deaffy.(Wikipedia)

Catalog No.: VICP-5210

Track list:

1. "Objection Overruled" – 3:38 
2. "I Don't Wanna Be Like You" – 4:19 
3. "Protectors of Terror" – 4:03 
4. "Slaves to Metal" – 4:37 
5. "All or Nothing" – 4:32 
6. "Bulletproof" – 5:05 
7. "Amamos La Vida" – 4:39 
8. "Sick, Dirty And Mean" – 4:33 
9. "Donation" – 4:48 
10. "Just By My Own" – 3:29 
11. "This One's for You" – 4:10 
12. "Rich & Famous" (Japanese bonus track) - 3:10

Total: 51:15

Code
Exact Audio Copy V0.99 prebeta 5 from 4. May 2009 

EAC extraction logfile from 3. January 2010, 11:18 

Accept / Objection Overruled 

Used drive : PIONEER DVD-RW DVR-212D Adapter: 0 ID: 0 

Read mode : Secure 
Utilize accurate stream : Yes 
Defeat audio cache : Yes 
Make use of C2 pointers : No 

Read offset correction : 48 
Overread into Lead-In and Lead-Out : No 
Fill up missing offset samples with silence : Yes 
Delete leading and trailing silent blocks : No 
Null samples used in CRC calculations : Yes 
Used interface : Installed external ASPI interface 

Used output format : User Defined Encoder 
Selected bitrate : 768 kBit/s 
Quality : High 
Add ID3 tag : No 
Command line compressor : C:\Program Files\Exact Audio Copy\FLAC\FLAC.EXE 
Additional command line options : -8 -V %s 

TOC of the extracted CD 

Track | Start | Length | Start sector | End sector  
--------------------------------------------------------- 
1 | 0:00.37 | 3:39.23 | 37 | 16484  
2 | 3:39.60 | 4:18.72 | 16485 | 35906  
3 | 7:58.57 | 4:03.45 | 35907 | 54176  
4 | 12:02.27 | 4:37.53 | 54177 | 75004  
5 | 16:40.05 | 4:31.50 | 75005 | 95379  
6 | 21:11.55 | 5:04.72 | 95380 | 118251  
7 | 26:16.52 | 4:39.00 | 118252 | 139176  
8 | 30:55.52 | 4:33.43 | 139177 | 159694  
9 | 35:29.20 | 4:48.70 | 159695 | 181364  
10 | 40:18.15 | 3:29.45 | 181365 | 197084  
11 | 43:47.60 | 4:14.42 | 197085 | 216176  
12 | 48:02.27 | 3:13.05 | 216177 | 230656  

Range status and errors 

Selected range 

Filename D:\EAC\Accept - Objection Overruled.wav 

Peak level 100.0 % 
Range quality 100.0 % 
Test CRC EB690676 
Copy CRC EB690676 
Copy OK 

No errors occurred 

AccurateRip summary 

Track 1 accurately ripped (confidence 3) [9FDCA386] 
Track 2 accurately ripped (confidence 3) [005E967D] 
Track 3 accurately ripped (confidence 3) [1479EBC2] 
Track 4 accurately ripped (confidence 3) [1DE406B9] 
Track 5 accurately ripped (confidence 3) [5FF909E0] 
Track 6 accurately ripped (confidence 3) [2D7E0D34] 
Track 7 accurately ripped (confidence 3) [CA806B6C] 
Track 8 accurately ripped (confidence 3) [E9693D05] 
Track 9 accurately ripped (confidence 3) [4C6D9B56] 
Track 10 accurately ripped (confidence 3) [728CFBE0] 
Track 11 accurately ripped (confidence 3) [FAB3E57F] 
Track 12 accurately ripped (confidence 3) [4E9D6F57] 

All tracks accurately ripped 

End of status report

Download (Hotfile.com) : 
Part 1 
Part 2 
Part 3 
Part 4

Mirror (Uploading.com) : 
Part 1 
Part 2 
Part 3 
Part 4 

Mirror (Rapidshare.com) : 
Part 1 
Part 2 
Part 3 
Part 4

Category: Lossless HTTP | Views: 388 | Added by: Rat | Rating: 0.0/0
Total comments: 0
Only registered users can add comments.
[ Registration | Login ]

«  October 2010  »
SuMoTuWeThFrSa
     12
3456789
10111213141516
17181920212223
24252627282930
31


  • Israel-club.my1.ru


  • Copyright MyCorp © 2017